<?xml version="1.0" standalone="no"?>
<!DOCTYPE svg PUBLIC "-//W3C//DTD SVG 1.1//EN" "http://www.w3.org/Graphics/SVG/1.1/DTD/svg11.dtd" >
<svg xmlns="http://www.w3.org/2000/svg">
<metadata></metadata>
<defs>
<font id="compactaregular" horiz-adv-x="819" >
<font-face units-per-em="2048" ascent="1638" descent="-410" />
<missing-glyph horiz-adv-x="327" />
<glyph horiz-adv-x="0" />
<glyph unicode="&#xd;" horiz-adv-x="327" />
<glyph unicode=" "  horiz-adv-x="327" />
<glyph unicode="&#x09;" horiz-adv-x="327" />
<glyph unicode="&#xa0;" horiz-adv-x="327" />
<glyph unicode="!" horiz-adv-x="477" d="M123 0v231h231v-231h-231zM123 1366h231l-26 -1053h-178z" />
<glyph unicode="&#x22;" horiz-adv-x="571" d="M86 1147v219h162v-219l-55 -197h-52zM322 1147v219h161v-219l-53 -197h-53z" />
<glyph unicode="#" d="M68 0v1366h684v-1366h-684zM82 14h655v1338h-655v-1338z" />
<glyph unicode="$" horiz-adv-x="681" d="M68 203v24v340h233v-315q0 -70 41 -70t41 74v252q0 27 -1 43t-6 27.5t-15.5 18.5t-26.5 17l-12 9l-136 79q-37 20 -60.5 40t-35.5 44.5t-17 56t-5 79.5v217v16q0 106 43 155.5t141 55.5h8v109h164v-107l6 -2q98 -8 141 -56t43 -151v-26v-238h-231v209q0 49 -9 66.5 t-32 17.5t-32 -17.5t-9 -60.5v-6v-186q0 -35 5 -45.5t28 -24.5l188 -117q27 -18 45.5 -34.5t28.5 -38t14 -50t4 -69.5v-15v-301q0 -59 -6 -89t-22 -56q-23 -37 -60 -55.5t-96 -22.5l-6 -2v-100h-164v100h-8q-96 8 -140 56t-44 149z" />
<glyph unicode="%" horiz-adv-x="1107" d="M68 795v20v418v20q0 45 10 67.5t35 33.5q18 8 42.5 11t90.5 3t91 -3t42 -11q25 -12 35 -34t10 -67v-20v-418v-20q0 -45 -10.5 -67.5t-34.5 -33.5q-18 -8 -45 -11t-88 -3q-57 0 -92 4t-54.5 16.5t-25.5 35t-6 59.5zM195 0l569 1366h147l-569 -1366h-147zM213 807 q-2 -18 5 -24.5t30 -6.5q33 0 33 29v18v406v-4v16q0 18 -7.5 24.5t-25.5 6.5q-23 0 -29 -6t-6 -25v-16v-402v-16zM684 113v20v418v20q0 45 10.5 66.5t34.5 34.5q18 8 43 10t90 2q66 0 91.5 -2t41.5 -10q25 -12 35 -34t10 -67v-20v-418v-20q0 -45 -10 -67.5t-35 -33.5 q-18 -10 -44.5 -12t-88.5 -2q-57 0 -92 4t-54.5 16.5t-25.5 35t-6 59.5zM829 125q-2 -18 5.5 -24.5t29.5 -6.5q33 0 33 29v18v406v-4v16q0 31 -33 31q-23 0 -29 -6t-6 -25v-16v-402v-16z" />
<glyph unicode="&#x26;" horiz-adv-x="716" d="M82 219v21v301v24q0 68 22.5 105t75.5 63q-59 31 -78.5 70t-19.5 119v18v190v37q4 199 194 199h27h238v-184h-146h-8h-20q-35 0 -44.5 -11.5t-9.5 -52.5v-8v-188v-11v-20q0 -29 12.5 -40t47.5 -11h22v239h219v-239h88v-185h-88v-655h-219h-47q-51 0 -83 2t-52 6 t-34.5 11.5t-31.5 19.5q-37 29 -51 65.5t-14 114.5zM313 260l2 -20q0 -31 10.5 -43.5t34.5 -12.5h9h26v471h-22q-35 0 -47.5 -13t-12.5 -48v-12v-316v-6z" />
<glyph unicode="'" horiz-adv-x="333" d="M86 1147v219h162v-219l-55 -197h-52z" />
<glyph unicode="(" horiz-adv-x="505" d="M143 119v37v1054v41q0 70 10.5 108t39.5 73q29 33 71.5 50t95.5 17q10 0 18.5 -1t24.5 -3v-184q-33 -4 -44 -21.5t-11 -64.5v-27v-33v-964v-33v-21q0 -51 11.5 -69.5t43.5 -22.5v-184q-16 -4 -24 -4h-19q-121 0 -178 82q-23 35 -31 68.5t-8 101.5z" />
<glyph unicode=")" horiz-adv-x="505" d="M102 55q31 4 42.5 21.5t13.5 64.5v27v33v964v33v21q0 51 -11.5 69.5t-44.5 22.5v184q14 2 23.5 3t19.5 1q59 0 104.5 -21.5t74.5 -60.5q23 -35 30.5 -68.5t7.5 -103.5v-35v-1054v-41q0 -70 -11 -108t-40 -73q-57 -68 -166 -67h-20q-8 0 -23 4v184z" />
<glyph unicode="*" horiz-adv-x="677" d="M68 1120l32 105l187 -64v205h104v-205l187 64l30 -105l-184 -63l117 -168l-86 -66l-115 168l-117 -168l-86 66l117 168z" />
<glyph unicode="+" d="M68 0v1366h684v-1366h-684zM82 14h655v1338h-655v-1338z" />
<glyph unicode="," horiz-adv-x="333" d="M82 0v231h170v-229v-20q0 -92 -39 -134.5t-131 -52.5v105q61 12 61 75v23v2h-61z" />
<glyph unicode="-" horiz-adv-x="409" d="M82 485v185h246v-185h-246z" />
<glyph unicode="." horiz-adv-x="333" d="M82 0v231h170v-231h-170z" />
<glyph unicode="/" horiz-adv-x="512" d="M0 -129l324 1624h188l-324 -1624h-188z" />
<glyph unicode="0" horiz-adv-x="669" d="M61 197v49v872v51q0 66 19.5 106t62.5 64q14 8 30.5 14.5t38 9.5t51.5 4t71 1q51 0 86 -2t59.5 -8t43 -16.5t34.5 -24.5q41 -41 49 -109q2 -16 2 -30v-60v-872q0 -35 -1 -57.5t-2 -38t-4 -25.5t-7 -21q-14 -35 -44 -60.5t-69 -35.5q-23 -6 -55.5 -9t-91.5 -3q-41 0 -71 1 t-51.5 5t-37.5 9t-31 16q-43 25 -62.5 64.5t-19.5 105.5zM293 281q0 -35 1 -47.5t3 -20.5q10 -33 37 -33q41 0 41 72v29v804v29q0 39 -9.5 54.5t-31.5 15.5q-31 0 -37 -35q-2 -8 -3 -21.5t-1 -42.5v-804z" />
<glyph unicode="1" horiz-adv-x="430" d="M0 997v185q84 10 124 53t54 131h184v-1366h-231v997h-131z" />
<glyph unicode="2" horiz-adv-x="655" d="M55 0v213l295 623q18 37 19 47v39v188v14q0 59 -41 60q-41 0 -41 -56v-14v-219h-232v246v37q0 66 23.5 106.5t75.5 63.5q27 12 61.5 16t101.5 4q49 0 84 -1t58.5 -6t40 -12.5t32.5 -19.5q39 -29 53.5 -69.5t14.5 -118.5v-189q0 -78 -10 -124t-37 -105l-260 -539h307v-184 h-545z" />
<glyph unicode="3" horiz-adv-x="655" d="M57 201v20v346h232v-309v-10q0 -68 41 -68t41 70v8v309v15q0 61 -60 59h-12h-59v184h49q55 0 68.5 12.5t13.5 63.5v19v182v20q0 61 -41 62q-41 0 -41 -68v-16v-205h-232v217v35q-2 76 12.5 113.5t51.5 68.5q41 31 110 37q12 2 37 2h62q49 0 84 -2t59.5 -7t41.5 -15.5 t34 -24.5q31 -29 41 -63.5t12 -108.5v-27v-184v-21q0 -76 -20.5 -113.5t-79.5 -66.5q59 -31 79.5 -69.5t20.5 -122.5v-291v-33q-2 -84 -19.5 -125t-64.5 -69q-14 -8 -29.5 -14.5t-37 -9.5t-52 -4t-73.5 -1q-88 0 -131 9t-74 32q-35 29 -49.5 65.5t-14.5 98.5z" />
<glyph unicode="4" horiz-adv-x="620" d="M27 293v174l184 899h328v-889h69v-184h-69v-293h-217v293h-295zM240 477h82v535z" />
<glyph unicode="5" horiz-adv-x="655" d="M55 186v35v346h232v-307q0 -43 9 -61.5t32 -18.5t32 16.5t9 57.5v8v486q0 37 -9.5 51t-31.5 14q-41 0 -41 -45v-18v-48h-232v664h545v-184h-313v-242q57 59 133 59q86 0 133 -62.5t47 -172.5v-23v-510v-34q0 -121 -70 -164q-33 -23 -72.5 -30t-123.5 -7q-41 0 -71 1 t-51.5 4t-38.5 8t-32 14q-86 45 -86 163z" />
<glyph unicode="6" horiz-adv-x="669" d="M61 213v27v864v41q0 92 24 137t83 70q12 6 25.5 9t32 4t45 2t65.5 1q86 0 125 -6t69 -25q41 -27 59.5 -68.5t18.5 -109.5v-18v-246h-233v225q0 63 -41 64q-41 0 -41 -54v-14v-332q37 29 66.5 40.5t66.5 11.5q86 0 134 -62.5t48 -173.5v-18v-355v-37q-2 -135 -106 -176 q-14 -6 -27.5 -9t-32 -5t-46 -3t-66.5 -1q-47 0 -79 2t-54.5 6t-39 12.5t-30.5 20.5q-39 31 -52.5 67.5t-13.5 108.5zM293 266q0 -49 9 -67.5t32 -18.5q25 0 33 18.5t8 65.5v15v299q0 41 -9.5 56t-31.5 15q-23 0 -32 -15.5t-9 -55.5v-312z" />
<glyph unicode="7" horiz-adv-x="587" d="M27 0l295 1182h-273v184h498v-233l-287 -1133h-233z" />
<glyph unicode="8" horiz-adv-x="669" d="M61 231v269v43q0 41 4.5 69.5t15.5 50t30.5 37t50.5 31.5q-29 14 -48.5 29.5t-30.5 36t-16.5 48t-5.5 66.5v19v192v43q0 72 22.5 114t72.5 67q27 14 64.5 18t121.5 4q88 0 129 -8t72 -31q37 -29 51 -68.5t14 -111.5v-16v-207v-19q0 -68 -23.5 -107.5t-76.5 -68.5 q59 -31 79.5 -69.5t20.5 -114.5v-31v-285v-30q0 -66 -17.5 -105t-58.5 -65q-14 -10 -30.5 -16.5t-40 -10.5t-56 -6t-79.5 -2q-96 0 -141.5 12t-78.5 47q-29 29 -37 64t-8 112zM293 250q2 -70 41 -70q41 0 41 72v6v297v12q0 72 -41 72t-41 -70v-12v-295v-12zM293 883 q4 -59 41 -60q45 0 41 60v10v221v12q0 57 -41 58q-41 0 -41 -60v-10v-221v-10z" />
<glyph unicode="9" horiz-adv-x="669" d="M61 201v16v260h232v-198v-13q0 -49 9 -67.5t32 -18.5t32 17.5t9 62.5v16v316q-39 -35 -65.5 -45t-61.5 -10q-88 0 -144 65q-23 29 -33 64.5t-10 93.5v22v361q0 76 10.5 110.5t41.5 63.5q16 16 34.5 26.5t43 15.5t59.5 7t88 2q84 0 124 -6t68 -25q43 -29 60.5 -68.5 t17.5 -111.5v-27v-899v-18q0 -66 -11 -102.5t-40 -61.5q-35 -31 -77 -42t-124 -11q-57 0 -96 2t-65.5 8t-45 15.5t-32.5 23.5q-31 29 -43.5 63.5t-12.5 92.5zM293 793q0 -72 41 -72q23 0 32 16.5t9 59.5v311q0 43 -9.5 59.5t-31.5 16.5q-41 0 -41 -72v-6v-307v-6z" />
<glyph unicode=":" horiz-adv-x="333" d="M82 0v231h170v-231h-170zM82 717v231h170v-231h-170z" />
<glyph unicode=";" horiz-adv-x="333" d="M82 0v231h170v-229v-20q0 -92 -39 -134.5t-131 -52.5v105q61 12 61 75v23v2h-61zM82 717v231h170v-231h-170z" />
<glyph unicode="&#x3c;" d="M68 0v1366h684v-1366h-684zM82 14h655v1338h-655v-1338z" />
<glyph unicode="=" d="M68 0v1366h684v-1366h-684zM82 14h655v1338h-655v-1338z" />
<glyph unicode="&#x3e;" d="M68 0v1366h684v-1366h-684zM82 14h655v1338h-655v-1338z" />
<glyph unicode="?" horiz-adv-x="696" d="M68 895v217v25q0 82 11 118.5t46 65.5q16 14 33.5 23.5t40 14.5t54.5 7t77 2q49 0 82.5 -1t58.5 -5t41 -11.5t33 -19.5q41 -29 55 -67.5t14 -116.5v-29v-170v-20q0 -47 -7 -74t-27 -66l-93 -163l-10 -19q-14 -23 -17 -34t-3 -27v-8v-7v-2v-18v-27v-170h-232v224v20v12v11 v16q0 23 3 33t20 39l110 198q25 43 25 97v18v133v8q0 61 -41 62q-41 0 -41 -68v-221h-233zM225 0v231h232v-231h-232z" />
<glyph unicode="@" d="M68 0v1366h684v-1366h-684zM82 14h655v1338h-655v-1338z" />
<glyph unicode="A" horiz-adv-x="604" d="M14 0l125 1366h316l137 -1366h-232l-16 287h-104l-21 -287h-205zM252 471h82l-33 490q0 6 -2 10l-2 51q-2 12 -3 22.5t-1 18.5l-2 14v-14q-2 -12 -3 -24.5t-1 -22.5q-2 -18 -3 -30.5t-1 -14.5v-10z" />
<glyph unicode="B" horiz-adv-x="671" d="M68 0v1366h276h53q115 0 166 -47t51 -150v-43v-190v-29q0 -35 -4 -60.5t-15 -46t-30.5 -36.5t-48.5 -35q57 -27 77.5 -63.5t20.5 -112.5v-33v-293q0 -76 -11 -112.5t-40 -65.5t-64.5 -39t-95.5 -10h-34h-301zM301 184h23q35 0 47 10.5t12 45.5v18v297q0 53 -12.5 69.5 t-51.5 16.5h-18v-457zM301 825h12h15q35 0 45 12.5t10 51.5v18v189v10q0 47 -12.5 61.5t-46.5 14.5h-11h-12v-357z" />
<glyph unicode="C" horiz-adv-x="665" d="M61 197v49v874v51q0 63 20.5 103.5t61.5 64.5q14 8 30.5 14.5t39.5 9.5t53.5 4t75.5 1q47 0 80 -2t56.5 -8t41 -15.5t33.5 -23.5q43 -39 53 -113q2 -16 2 -32v-56v-223h-233v190v27q0 72 -41 72t-41 -68v-29v-808q0 -33 1 -45.5t3 -20.5q10 -33 37 -33q41 0 41 72v29v286 h233v-321q0 -35 -1 -57.5t-2 -38t-4 -25.5t-7 -21q-14 -35 -44 -60.5t-69 -35.5q-23 -6 -55.5 -9t-91.5 -3q-41 0 -71 1t-51.5 5t-37.5 9t-31 16q-43 25 -62.5 64.5t-19.5 105.5z" />
<glyph unicode="D" horiz-adv-x="675" d="M68 0v1366h290h48q109 -2 158.5 -49t49.5 -148v-51v-852v-57q0 -113 -50 -161t-163 -48h-39h-294zM301 184h12h11q37 0 48 13.5t11 56.5v27v819v10q0 45 -9 58.5t-38 13.5h-12h-23v-998z" />
<glyph unicode="E" horiz-adv-x="505" d="M68 0v1366h383v-184h-150v-342h150v-185h-150v-471h150v-184h-383z" />
<glyph unicode="F" horiz-adv-x="477" d="M68 0v1366h376v-184h-143v-342h143v-185h-143v-655h-233z" />
<glyph unicode="G" horiz-adv-x="665" d="M61 229v893q0 43 1 70t5.5 46t11.5 32.5t19 27.5q16 20 35 34t45.5 22t64.5 11t91 3q98 0 144 -10t77 -39q29 -29 41 -65.5t12 -108.5v-41v-209h-233v217q0 72 -41 72q-39 0 -39 -47v-15q-2 -4 -2 -8v-2v-846v-10q2 -43 10 -59.5t31 -16.5t32 17.5t9 58.5v4v252h-53v184 h286v-696h-82l-49 98q-33 -57 -77 -79.5t-121 -22.5q-141 0 -193 86q-16 27 -20.5 54.5t-4.5 92.5z" />
<glyph unicode="H" horiz-adv-x="681" d="M68 0v1366h233v-526h82v526h231v-1366h-231v655h-82v-655h-233z" />
<glyph unicode="I" horiz-adv-x="368" d="M68 0v1366h233v-1366h-233z" />
<glyph unicode="J" horiz-adv-x="630" d="M41 225v19v325h211v-305v-8q0 -41 9 -58.5t32 -17.5t32 17.5t9 58.5v8v1102h233v-1133v-22q-2 -61 -11 -94t-34 -62q-33 -35 -78 -47t-137 -12t-135 10t-76 39q-35 29 -45 65.5t-10 114.5z" />
<glyph unicode="K" horiz-adv-x="641" d="M68 0v1366h231v-518l88 518h211l-121 -590l150 -776h-226l-102 637v-637h-231z" />
<glyph unicode="L" horiz-adv-x="456" d="M68 0v1366h233v-1182h143v-184h-376z" />
<glyph unicode="M" horiz-adv-x="915" d="M68 0v1366h327l62 -655l61 655h328v-1366h-211v774l-103 -774h-149l-102 774v-774h-213z" />
<glyph unicode="N" horiz-adv-x="710" d="M68 0v1366h239l129 -641v641h205v-1366h-238l-131 686v-686h-204z" />
<glyph unicode="O" horiz-adv-x="669" d="M61 197v49v872v51q0 66 19.5 106t62.5 64q14 8 30.5 14.5t38 9.5t51.5 4t71 1q51 0 86 -2t59.5 -8t43 -16.5t34.5 -24.5q41 -41 49 -109q2 -16 2 -30v-60v-872q0 -35 -1 -57.5t-2 -38t-4 -25.5t-7 -21q-14 -35 -44 -60.5t-69 -35.5q-23 -6 -55.5 -9t-91.5 -3q-41 0 -71 1 t-51.5 5t-37.5 9t-31 16q-43 25 -62.5 64.5t-19.5 105.5zM293 281q0 -35 1 -47.5t3 -20.5q10 -33 37 -33q41 0 41 72v29v804v29q0 39 -9.5 54.5t-31.5 15.5q-31 0 -37 -35q-2 -8 -3 -21.5t-1 -42.5v-804z" />
<glyph unicode="P" horiz-adv-x="655" d="M68 0v1366h315h51q113 -6 160 -90q12 -23 16 -51.5t4 -87.5v-29v-365v-24v-27q0 -55 -7 -86t-23 -55q-27 -41 -65 -57.5t-105 -16.5h-31h-82v-477h-233zM301 662h25h10q47 4 47 55v14v381v18q0 51 -51 52h-10h-21v-520z" />
<glyph unicode="Q" horiz-adv-x="669" d="M61 197v49v872v51q0 66 19.5 106t62.5 64q14 8 30.5 14.5t38 9.5t51.5 4t71 1q51 0 86 -2t59.5 -8t43 -16.5t34.5 -24.5q41 -41 49 -109q2 -16 2 -30v-60v-872q0 -43 -1 -71t-5 -46t-10 -32.5t-19 -28.5q-43 -59 -135 -68q29 -8 53.5 -11t65.5 -3h29h12l-82 -142 q-78 20 -137.5 56.5t-118.5 97.5q-102 4 -150.5 52t-48.5 147zM293 281q0 -35 1 -47.5t3 -20.5q10 -33 37 -33q41 0 41 72v29v804v29q0 39 -9.5 54.5t-31.5 15.5q-31 0 -37 -35q-2 -8 -3 -21.5t-1 -42.5v-804z" />
<glyph unicode="R" horiz-adv-x="671" d="M68 0v1366h301h41q61 -2 99 -16.5t66 -46.5q25 -29 32 -62t7 -108v-35v-244q0 -41 -3 -68.5t-14 -48t-30.5 -35t-50.5 -30.5q53 -18 75.5 -55t22.5 -103v-25v-489h-231v483v9l-2 22q0 39 -14.5 52.5t-51.5 13.5h-14v-580h-233zM301 764h25h10q47 4 47 55v15v278v18 q0 51 -51 52h-10h-21v-418z" />
<glyph unicode="S" horiz-adv-x="661" d="M57 203v24v340h234v-315q0 -70 41 -70t41 74v252q0 27 -1 43t-6.5 27.5t-15.5 18.5t-26 17l-13 9l-135 79q-37 20 -60.5 40t-35.5 44.5t-17.5 56t-5.5 79.5v217v16q0 76 17.5 116t62.5 66q16 8 32.5 14.5t40 10.5t55.5 5t79 1q41 0 69.5 -1t50 -5t38 -11.5t33.5 -19.5 q39 -29 54 -67.5t15 -104.5v-26v-238h-231v209q0 49 -9.5 65.5t-31.5 16.5q-23 0 -32 -16.5t-9 -59.5v-6v-186q0 -35 4 -45.5t27 -24.5l190 -117q27 -18 45 -34.5t28.5 -38t14.5 -50t4 -69.5v-15v-301q0 -74 -11 -111.5t-44 -66.5q-31 -29 -77 -39t-148 -10q-78 0 -114 5 t-65 22q-47 27 -67.5 67.5t-20.5 112.5z" />
<glyph unicode="T" horiz-adv-x="518" d="M14 1182v184h492v-184h-129v-1182h-234v1182h-129z" />
<glyph unicode="U" horiz-adv-x="675" d="M66 223v1143h231v-1104q0 -47 9 -64.5t32 -17.5t32 18.5t9 61.5v1106h231v-1137v-26q0 -66 -15 -104t-56 -66q-16 -12 -34 -19.5t-40.5 -11.5t-56 -5t-84.5 -1q-45 0 -78 3t-57.5 9t-42 17.5t-33.5 27.5q-29 27 -38 63t-9 107z" />
<glyph unicode="V" horiz-adv-x="589" d="M14 1366h232l51 -915l74 915h204l-131 -1366h-299z" />
<glyph unicode="W" horiz-adv-x="974" d="M14 1366h232l43 -748l55 748h295l49 -748l55 748h220l-132 -1366h-260l-82 741l-88 -741h-260z" />
<glyph unicode="X" horiz-adv-x="610" d="M20 0l109 719l-92 647h233l56 -492l53 492h211l-103 -647l101 -719h-234l-57 598l-66 -598h-211z" />
<glyph unicode="Y" horiz-adv-x="587" d="M6 1366h234l61 -530l61 530h218l-164 -819v-547h-232v547z" />
<glyph unicode="Z" horiz-adv-x="538" d="M35 0v170l237 1012h-217v184h451v-172l-240 -1010h240v-184h-471z" />
<glyph unicode="[" horiz-adv-x="505" d="M147 -129v1624h293v-184h-88v-1256h88v-184h-293z" />
<glyph unicode="\" horiz-adv-x="512" d="M0 1495h188l324 -1624h-188z" />
<glyph unicode="]" horiz-adv-x="505" d="M66 55h88v1256h-88v184h292v-1624h-292v184z" />
<glyph unicode="^" d="M68 0v1366h684v-1366h-684zM82 14h655v1338h-655v-1338z" />
<glyph unicode="_" horiz-adv-x="1024" d="M0 -272h1024v-185h-1024v185z" />
<glyph unicode="`" horiz-adv-x="526" d="M137 1464h197l55 -211h-158z" />
<glyph unicode="a" horiz-adv-x="577" d="M47 201v192q0 43 2 68.5t12.5 44t29 35t52.5 39.5l172 118v195v14q0 47 -30 47q-31 0 -33 -39v-22v-162h-205v189q0 57 9.5 86.5t31.5 56.5q14 16 29.5 26.5t38 16.5t54.5 8t79 2q45 0 76.5 -3t53 -9t37 -18.5t29.5 -30.5q20 -27 27.5 -54.5t7.5 -80.5v-920h-205v47 q-45 -51 -112 -51q-41 0 -77 19.5t-56 52.5q-12 23 -17.5 49t-5.5 84zM252 215q0 -35 7 -46t26 -11q16 0 23 11t7 42v303l-34 -25q-20 -14 -24.5 -20t-4.5 -25v-14v-14v-201z" />
<glyph unicode="b" horiz-adv-x="587" d="M61 0v1366h205v-315q33 37 60.5 51t62.5 14q37 0 68.5 -16.5t50.5 -44.5q16 -23 21.5 -52.5t5.5 -97.5v-14v-696v-19q-2 -51 -7.5 -74.5t-21.5 -46.5q-43 -59 -121 -59q-35 0 -60.5 13.5t-58.5 45.5v-55h-205zM266 215q0 -35 6.5 -46t24.5 -11q20 0 26.5 11t6.5 46v12 v660v10q0 35 -6.5 46t-26.5 11q-18 0 -24.5 -11t-6.5 -46v-10v-660v-12z" />
<glyph unicode="c" horiz-adv-x="577" d="M55 201v18v686q0 55 4 82t17 51q27 45 68.5 61.5t134.5 16.5q55 0 92 -3t61.5 -11t40.5 -23.5t29 -38.5q16 -27 20 -50t4 -79v-276h-204v256v12v15q0 37 -31 36q-18 0 -25.5 -11t-7.5 -42v-8v-664v-8v-14q0 -29 8 -39t25 -10q20 0 25.5 11t5.5 50v10v228h204v-248 q0 -63 -6 -92t-24 -56q-27 -39 -67 -52t-130 -13q-47 0 -79 2t-53.5 7t-35.5 13.5t-29 22.5q-29 29 -38 61.5t-9 98.5z" />
<glyph unicode="d" horiz-adv-x="587" d="M55 197v20v670v24q0 63 4 89t21 51q18 33 50 49t71 16q37 0 64.5 -14.5t56.5 -50.5v315h204v-1366h-204v55q-35 -35 -58.5 -47t-60.5 -12q-70 0 -115 55q-18 25 -25.5 57.5t-7.5 88.5zM258 215q0 -35 7 -46t26 -11q18 0 24.5 11t6.5 46v12v660v10q0 35 -6.5 46t-24.5 11 t-25.5 -11t-7.5 -46v-10v-660v-12z" />
<glyph unicode="e" horiz-adv-x="581" d="M55 174v21v733q0 90 39 135q14 16 29.5 26.5t38 16.5t55.5 8t82 2q76 0 111.5 -8t62.5 -31q53 -45 53 -133v-16v-416h-268v-295q0 -35 7 -47t26 -12q18 0 24.5 11t6.5 40v6v195h204v-205q0 -70 -7 -99.5t-32 -56.5q-29 -33 -68.5 -43t-127.5 -10q-72 0 -113 8t-63 27 q-59 47 -60 143zM258 676h64v211v10q0 35 -5.5 46t-25.5 11q-18 0 -25.5 -11t-7.5 -46v-10v-211z" />
<glyph unicode="f" horiz-adv-x="403" d="M14 948v164h56v39v29v9q0 91 38 133q39 44 132 44h20h143v-158h-55h-26q-29 0 -39.5 -10t-10.5 -43v-10v-33h131v-164h-131v-948h-202v948h-56z" />
<glyph unicode="g" horiz-adv-x="587" d="M55 -102h187h12h8q41 0 50.5 7t9.5 42v16v92q-35 -35 -58.5 -47t-60.5 -12q-70 0 -115 55q-18 25 -25.5 57.5t-7.5 88.5v20v670v24q0 63 4 89t21 51q18 33 50 49t71 16q37 0 64.5 -14.5t56.5 -50.5v61h204v-1180q0 -102 -40 -146t-136 -44h-14l-281 -2v158zM258 215 q0 -35 7 -46t26 -11q31 0 31 47v6v16v660v14q0 31 -6.5 42t-24.5 11t-25.5 -11t-7.5 -46v-10v-660v-12z" />
<glyph unicode="h" horiz-adv-x="591" d="M61 0v1366h205v-311q35 35 62.5 48t62.5 13q63 0 103.5 -44t40.5 -116v-26v-930h-205v885v12q0 35 -6.5 46t-26.5 11q-18 0 -24.5 -11t-6.5 -42v-10v-891h-205z" />
<glyph unicode="i" horiz-adv-x="327" d="M61 0v1112h205v-1112h-205zM61 1196v170h205v-170h-205z" />
<glyph unicode="j" horiz-adv-x="327" d="M-76 -102h64h8q41 0 53 13t12 58v15v1128h205v-1169v-31q-2 -106 -76 -152q-16 -10 -37.5 -14t-68.5 -4l-160 -2v158zM61 1196v170h205v-170h-205z" />
<glyph unicode="k" horiz-adv-x="573" d="M61 0v1366h205v-692l82 438h211l-129 -498l129 -614h-211l-82 535v-535h-205z" />
<glyph unicode="l" horiz-adv-x="327" d="M61 0v1366h205v-1366h-205z" />
<glyph unicode="m" horiz-adv-x="860" d="M61 0v1112h205v-59q31 35 59.5 49t67.5 14q41 0 71 -16.5t58 -55.5q33 39 62.5 55.5t66.5 16.5q41 0 76 -19.5t53 -52.5q12 -23 16.5 -47t4.5 -71v-35v-14v-877h-205v895v14q0 45 -31 45q-18 0 -25.5 -12t-7.5 -47v-895h-202v905v10q0 39 -31 39q-33 0 -33 -36v-11v-907 h-205z" />
<glyph unicode="n" horiz-adv-x="591" d="M61 0v1112h205v-63q35 39 61.5 53t61.5 14q76 0 117 -59q16 -25 22.5 -48.5t6.5 -76.5v-21v-911h-205v905v6q0 47 -31 47q-33 0 -33 -47v-6v-905h-205z" />
<glyph unicode="o" horiz-adv-x="581" d="M55 201v18v686q0 55 4 82t17 51q27 45 68.5 61.5t134.5 16.5q55 0 92 -3t61.5 -11t40.5 -23.5t29 -38.5q16 -27 20 -50t4 -79v-702q0 -63 -6 -92t-24 -56q-27 -39 -67 -52t-130 -13q-47 0 -79 2t-53.5 7t-35.5 13.5t-29 22.5q-29 29 -38 61.5t-9 98.5zM260 207 q0 -29 7 -39t24 -10q20 0 26.5 11t6.5 50v672l-2 12v15q0 36 -29 36h-2q-18 0 -24.5 -11t-6.5 -42v-8v-664v-8v-14z" />
<glyph unicode="p" horiz-adv-x="591" d="M61 -260v1372h205v-61q35 37 61.5 51t61.5 14q37 0 68.5 -16.5t50.5 -44.5q16 -23 21.5 -53.5t5.5 -88.5v-22v-696v-21q0 -47 -6.5 -71.5t-22.5 -47.5q-43 -59 -121 -59q-33 0 -58.5 13.5t-60.5 45.5v-315h-205zM266 215q0 -35 6.5 -46t24.5 -11q33 0 33 47v10v12v660v10 q0 35 -6.5 46t-26.5 11q-31 0 -31 -45v-12v-10v-660v-12z" />
<glyph unicode="q" horiz-adv-x="591" d="M57 170v25v702v31q0 47 6.5 75.5t20.5 51.5q18 29 52 45t69 16q37 0 64.5 -15.5t56.5 -49.5v61h204v-1372h-204v319q-49 -63 -121 -63q-70 0 -109 46t-39 128zM262 215q0 -35 6 -46t27 -11q31 0 31 53v16v660v14q0 31 -7.5 42t-25.5 11t-24.5 -11t-6.5 -46v-10v-660v-12z " />
<glyph unicode="r" horiz-adv-x="540" d="M61 0v1112h205v-63q40 67 107 67h2q41 0 74.5 -20.5t50.5 -55.5q8 -16 11 -35.5t3 -54.5v-295h-184v252v13q0 35 -31 34q-33 0 -33 -34v-13v-907h-205z" />
<glyph unicode="s" horiz-adv-x="581" d="M55 172v41v12v185h203v-191v-10q2 -51 33 -51q18 0 24.5 11t6.5 40v10v170v35q0 23 -7.5 30t-46.5 29l-123 72q-53 31 -71.5 66.5t-18.5 107.5v14v181v16q0 100 70 147q25 16 57.5 22.5t98.5 6.5q88 0 125.5 -7t64.5 -30t41 -56.5t14 -68.5v-18v-205h-204v174v13 q2 37 -29 36q-35 0 -35 -41v-6v-153v-17q2 -29 9 -40t42 -29l125 -72q29 -16 46.5 -30.5t27.5 -33t14 -41t4 -55.5v-26v-207v-17q0 -61 -12 -95t-47 -60q-23 -18 -60.5 -26.5t-109.5 -8.5q-86 0 -125 9t-66 34q-29 27 -40 56.5t-11 76.5z" />
<glyph unicode="t" horiz-adv-x="389" d="M14 948v164h56v254h202v-254h90v-164h-90v-710v-11q0 -49 8.5 -59t45.5 -10h12h24v-158h-104h-12q-47 0 -76 8t-51 31q-29 27 -39 60.5t-12 99.5l2 18v731h-56z" />
<glyph unicode="u" horiz-adv-x="591" d="M57 180v21v911h205v-905v-6q0 -47 31 -47q33 0 33 47v6v905h204v-1112h-204v63q-35 -39 -61.5 -53t-61.5 -14q-74 0 -117 59q-16 25 -22.5 48.5t-6.5 76.5z" />
<glyph unicode="v" horiz-adv-x="538" d="M6 1112h219l45 -688l43 688h219l-143 -1112h-239z" />
<glyph unicode="w" horiz-adv-x="813" d="M6 1112h219l43 -625l45 625h187l43 -625l45 625h217l-123 -1112h-217l-57 526l-46 -526h-219z" />
<glyph unicode="x" horiz-adv-x="559" d="M6 0l123 594l-88 518h199l41 -393l34 393h197l-78 -518l119 -594h-219l-53 455l-56 -455h-219z" />
<glyph unicode="y" horiz-adv-x="542" d="M-6 -102h90h10q41 0 58.5 13t17.5 46q0 10 -1 29.5t-5 42.5l-2 16l-152 1067h219l43 -688l45 688h218l-160 -1141l-4 -28q-8 -66 -17.5 -95.5t-29.5 -52.5q-25 -29 -60 -42t-88 -13h-14h-168v158z" />
<glyph unicode="z" horiz-adv-x="532" d="M27 0v186l272 762h-233v164h438v-176l-275 -772h275v-164h-477z" />
<glyph unicode="{" d="M68 0v1366h684v-1366h-684zM82 14h655v1338h-655v-1338z" />
<glyph unicode="|" d="M68 0v1366h684v-1366h-684zM82 14h655v1338h-655v-1338z" />
<glyph unicode="}" d="M68 0v1366h684v-1366h-684zM82 14h655v1338h-655v-1338z" />
<glyph unicode="~" d="M68 0v1366h684v-1366h-684zM82 14h655v1338h-655v-1338z" />
<glyph unicode="&#xa1;" horiz-adv-x="477" d="M123 0l27 1051h178l26 -1051h-231zM123 1135v231h231v-231h-231z" />
<glyph unicode="&#xa2;" horiz-adv-x="608" d="M68 340v16v686q0 66 7 94.5t27 57.5t46 41t71 16v115h164v-115q49 -4 81 -20.5t52 -50.5q16 -27 20.5 -51.5t4.5 -79.5v-275h-205v256v10v17q-4 37 -31 37q-18 0 -25.5 -11.5t-7.5 -42.5v-10v-663v-7v-16q0 -49 33 -49q18 0 24.5 12t6.5 51v9v229h205v-250 q0 -61 -6.5 -91t-24.5 -56q-39 -57 -127 -64v-108h-164v110q-63 2 -104 43q-27 27 -37 60.5t-10 99.5z" />
<glyph unicode="&#xa3;" horiz-adv-x="731" d="M41 641v184h88v275v47q0 74 14.5 113.5t53.5 68.5q14 12 31.5 19.5t40 12.5t53 6t75.5 1q98 0 144.5 -12.5t79.5 -48.5q27 -29 34 -64t7 -110v-238h-218v209v6q0 41 -10 57.5t-33 16.5t-31 -15.5t-8 -56.5v-8v-279h205v-184h-205v-457h23h6q35 0 44 13.5t9 68.5v8v293 h218v-340v-30q0 -197 -197 -197h-21h-315v641h-88z" />
<glyph unicode="&#xa4;" d="M68 0v1366h684v-1366h-684zM82 14h655v1338h-655v-1338z" />
<glyph unicode="&#xa5;" horiz-adv-x="655" d="M41 1366h231l60 -530l63 530h205l-86 -471h86v-152h-113l-16 -81h129v-150h-149v-512h-232v512h-158v150h132l-17 81h-115v152h82z" />
<glyph unicode="&#xa7;" d="M68 0v1366h684v-1366h-684zM82 14h655v1338h-655v-1338z" />
<glyph unicode="&#xa8;" horiz-adv-x="702" d="M137 1276v164h176v-164h-176zM389 1276v164h178v-164h-178z" />
<glyph unicode="&#xa9;" d="M68 0v1366h684v-1366h-684zM82 14h655v1338h-655v-1338z" />
<glyph unicode="&#xaa;" d="M68 0v1366h684v-1366h-684zM82 14h655v1338h-655v-1338z" />
<glyph unicode="&#xab;" horiz-adv-x="628" d="M96 573l74 471h158l-76 -471l76 -471h-158zM313 573l76 471h158l-76 -471l76 -471h-158z" />
<glyph unicode="&#xac;" d="M68 0v1366h684v-1366h-684zM82 14h655v1338h-655v-1338z" />
<glyph unicode="&#xad;" horiz-adv-x="409" d="M82 485v185h246v-185h-246z" />
<glyph unicode="&#xae;" d="M68 0v1366h684v-1366h-684zM82 14h655v1338h-655v-1338z" />
<glyph unicode="&#xaf;" d="M68 0v1366h684v-1366h-684zM82 14h655v1338h-655v-1338z" />
<glyph unicode="&#xb0;" d="M68 0v1366h684v-1366h-684zM82 14h655v1338h-655v-1338z" />
<glyph unicode="&#xb1;" d="M68 0v1366h684v-1366h-684zM82 14h655v1338h-655v-1338z" />
<glyph unicode="&#xb4;" horiz-adv-x="526" d="M137 1253l53 211h199l-96 -211h-156z" />
<glyph unicode="&#xb6;" d="M68 0v1366h684v-1366h-684zM82 14h655v1338h-655v-1338z" />
<glyph unicode="&#xb7;" horiz-adv-x="333" d="M82 567v232h170v-232h-170z" />
<glyph unicode="&#xb8;" d="M68 0v1366h684v-1366h-684zM82 14h655v1338h-655v-1338z" />
<glyph unicode="&#xba;" d="M68 0v1366h684v-1366h-684zM82 14h655v1338h-655v-1338z" />
<glyph unicode="&#xbb;" horiz-adv-x="628" d="M82 102l76 471l-76 471h158l73 -471l-73 -471h-158zM301 102l74 471l-74 471h156l75 -471l-75 -471h-156z" />
<glyph unicode="&#xbf;" horiz-adv-x="696" d="M82 217v29v172v18q0 47 6 74t29 65l92 166l10 19q14 23 17.5 34t3.5 27v8v9v18v25v170h231v-224v-18v-14v-11v-14q0 -23 -3 -33t-19 -39l-111 -198q-25 -43 -25 -99v-16v-133v-8q4 -63 43 -64q39 0 39 68v223h234v-217v-25q0 -82 -11.5 -118.5t-46.5 -67.5 q-16 -14 -33.5 -23.5t-40 -14.5t-54 -7t-76.5 -2q-49 0 -83 2t-57.5 6t-41 11.5t-33.5 19.5q-41 29 -55.5 66.5t-14.5 115.5zM240 1135v231h231v-231h-231z" />
<glyph unicode="&#xc0;" horiz-adv-x="604" d="M14 0l125 1366h316l137 -1366h-232l-16 287h-104l-21 -287h-205zM123 1716h197l55 -211h-158zM252 471h82l-33 490q0 6 -2 10l-2 51q-2 12 -3 22.5t-1 18.5l-2 14v-14q-2 -12 -3 -24.5t-1 -22.5q-2 -18 -3 -30.5t-1 -14.5v-10z" />
<glyph unicode="&#xc1;" horiz-adv-x="604" d="M14 0l125 1366h316l137 -1366h-232l-16 287h-104l-21 -287h-205zM219 1505l53 211h199l-96 -211h-156zM252 471h82l-33 490q0 6 -2 10l-2 51q-2 12 -3 22.5t-1 18.5l-2 14v-14q-2 -12 -3 -24.5t-1 -22.5q-2 -18 -3 -30.5t-1 -14.5v-10z" />
<glyph unicode="&#xc2;" horiz-adv-x="604" d="M14 0l125 1366h316l137 -1366h-232l-16 287h-104l-21 -287h-205zM84 1505l94 211h246l96 -211h-170l-45 125l-51 -125h-170zM252 471h82l-33 490q0 6 -2 10l-2 51q-2 12 -3 22.5t-1 18.5l-2 14v-14q-2 -12 -3 -24.5t-1 -22.5q-2 -18 -3 -30.5t-1 -14.5v-10z" />
<glyph unicode="&#xc3;" horiz-adv-x="604" d="M14 0l125 1366h316l137 -1366h-232l-16 287h-104l-21 -287h-205zM84 1563q0 63 36 97t99 34q39 0 88 -12l33 -11q6 -2 17 -2q25 0 28 33h137q4 -16 5 -27v-20q0 -53 -31 -88t-80 -35q-18 0 -38.5 2t-53.5 10l-39 8q-16 4 -23 5q-37 0 -36 -37h-138q-2 14 -3 24.5t-1 18.5 zM252 471h82l-33 490q0 6 -2 10l-2 51q-2 12 -3 22.5t-1 18.5l-2 14v-14q-2 -12 -3 -24.5t-1 -22.5q-2 -18 -3 -30.5t-1 -14.5v-10z" />
<glyph unicode="&#xc4;" horiz-adv-x="604" d="M14 0l125 1366h316l137 -1366h-232l-16 287h-104l-21 -287h-205zM90 1528v164h176v-164h-176zM252 471h82l-33 490q0 6 -2 10l-2 51q-2 12 -3 22.5t-1 18.5l-2 14v-14q-2 -12 -3 -24.5t-1 -22.5q-2 -18 -3 -30.5t-1 -14.5v-10zM342 1528v164h178v-164h-178z" />
<glyph unicode="&#xc5;" horiz-adv-x="604" d="M14 0l125 1366h316l137 -1366h-232l-16 287h-104l-21 -287h-205zM137 1622q0 70 47 117t117 47q68 0 116 -47.5t48 -116.5q0 -68 -48 -116t-116 -48q-70 0 -117 48t-47 116zM219 1622q0 -35 23.5 -58.5t58.5 -23.5t58.5 23.5t23.5 58.5t-23.5 58.5t-58.5 23.5 t-58.5 -23.5t-23.5 -58.5zM252 471h82l-33 490q0 6 -2 10l-2 51q-2 12 -3 22.5t-1 18.5l-2 14v-14q-2 -12 -3 -24.5t-1 -22.5q-2 -18 -3 -30.5t-1 -14.5v-10z" />
<glyph unicode="&#xc6;" horiz-adv-x="722" d="M0 0l123 1366h547v-184h-138v-342h138v-185h-138v-471h138v-184h-369v287h-74l-22 -287h-205zM242 471h59v725z" />
<glyph unicode="&#xc7;" horiz-adv-x="665" d="M61 199v47v874v51q0 63 20.5 103.5t61.5 64.5q14 8 30.5 14.5t39.5 9.5t53.5 4t75.5 1q47 0 80 -2t56.5 -8t41 -15.5t33.5 -23.5q43 -39 53 -113q2 -16 2 -32v-56v-223h-233v190v27q0 72 -41 72t-41 -68v-29v-808q0 -59 8 -78t33 -19q23 0 32 15.5t9 56.5v27v286h233 v-321v-49q-2 -104 -53 -150.5t-162 -48.5l-24 -209h-146l60 209q-117 2 -169.5 49t-52.5 152z" />
<glyph unicode="&#xc8;" horiz-adv-x="505" d="M68 0v1366h383v-184h-150v-342h150v-185h-150v-471h150v-184h-383zM84 1716h197l55 -211h-158z" />
<glyph unicode="&#xc9;" horiz-adv-x="505" d="M68 0v1366h383v-184h-150v-342h150v-185h-150v-471h150v-184h-383zM176 1505l53 211h199l-96 -211h-156z" />
<glyph unicode="&#xca;" horiz-adv-x="505" d="M28 1505l94 211h246l96 -211h-170l-45 125l-51 -125h-170zM29 0v1366h383v-184h-150v-342h150v-185h-150v-471h150v-184h-383z" />
<glyph unicode="&#xcb;" horiz-adv-x="505" d="M43 0v1366h383v-184h-150v-342h150v-185h-150v-471h150v-184h-383zM43 1528v164h176v-164h-176zM295 1528v164h178v-164h-178z" />
<glyph unicode="&#xcc;" horiz-adv-x="368" d="M2 0v1366h233v-1366h-233zM2 1716h197l55 -211h-158z" />
<glyph unicode="&#xcd;" horiz-adv-x="368" d="M68 0v1366h233v-1366h-233zM104 1505l53 211h199l-96 -211h-156z" />
<glyph unicode="&#xce;" horiz-adv-x="368" d="M-33 1505l94 211h246l96 -211h-170l-45 125l-51 -125h-170zM-32 0v1366h233v-1366h-233z" />
<glyph unicode="&#xcf;" horiz-adv-x="368" d="M-29 1528v164h176v-164h-176zM-28 0v1366h233v-1366h-233zM223 1528v164h178v-164h-178z" />
<glyph unicode="&#xd1;" horiz-adv-x="710" d="M68 0v1366h239l129 -641v641h205v-1366h-238l-131 686v-686h-204zM135 1563q0 63 36 97t99 34q39 0 88 -12l33 -11q6 -2 17 -2q25 0 28 33h137q4 -16 5 -27v-20q0 -53 -31 -88t-80 -35q-18 0 -38.5 2t-53.5 10l-39 8q-16 4 -23 5q-37 0 -36 -37h-138q-2 14 -3 24.5 t-1 18.5z" />
<glyph unicode="&#xd2;" horiz-adv-x="669" d="M61 197v49v872v51q0 66 19.5 106t62.5 64q14 8 30.5 14.5t38 9.5t51.5 4t71 1q51 0 86 -2t59.5 -8t43 -16.5t34.5 -24.5q41 -41 49 -109q2 -16 2 -30v-60v-872q0 -35 -1 -57.5t-2 -38t-4 -25.5t-7 -21q-14 -35 -44 -60.5t-69 -35.5q-23 -6 -55.5 -9t-91.5 -3q-41 0 -71 1 t-51.5 5t-37.5 9t-31 16q-43 25 -62.5 64.5t-19.5 105.5zM164 1716h197l55 -211h-158zM293 281q0 -35 1 -47.5t3 -20.5q10 -33 37 -33q41 0 41 72v29v804v29q0 39 -9.5 54.5t-31.5 15.5q-31 0 -37 -35q-2 -8 -3 -21.5t-1 -42.5v-804z" />
<glyph unicode="&#xd3;" horiz-adv-x="669" d="M61 197v49v872v51q0 66 19.5 106t62.5 64q14 8 30.5 14.5t38 9.5t51.5 4t71 1q51 0 86 -2t59.5 -8t43 -16.5t34.5 -24.5q41 -41 49 -109q2 -16 2 -30v-60v-872q0 -35 -1 -57.5t-2 -38t-4 -25.5t-7 -21q-14 -35 -44 -60.5t-69 -35.5q-23 -6 -55.5 -9t-91.5 -3q-41 0 -71 1 t-51.5 5t-37.5 9t-31 16q-43 25 -62.5 64.5t-19.5 105.5zM254 1509l53 211h199l-96 -211h-156zM293 281q0 -35 1 -47.5t3 -20.5q10 -33 37 -33q41 0 41 72v29v804v29q0 39 -9.5 54.5t-31.5 15.5q-31 0 -37 -35q-2 -8 -3 -21.5t-1 -42.5v-804z" />
<glyph unicode="&#xd4;" horiz-adv-x="669" d="M82 197v49v872v51q0 66 19.5 106t62.5 64q14 8 30.5 14.5t38 9.5t51 4t70.5 1q51 0 86 -2t59.5 -8t43 -16.5t35.5 -24.5q41 -41 49 -109q2 -16 2 -30v-60v-872q0 -35 -1 -57.5t-2 -38t-4.5 -25.5t-7.5 -21q-14 -35 -43.5 -60.5t-68.5 -35.5q-23 -6 -55.5 -9t-92.5 -3 q-41 0 -70.5 1t-51 5t-38 9t-30.5 16q-43 25 -62.5 64.5t-19.5 105.5zM137 1505l94 211h246l96 -211h-170l-45 125l-51 -125h-170zM313 281q0 -35 1 -47.5t3 -20.5q10 -33 37 -33q41 0 41 72v29v804v29q0 39 -9 54.5t-32 15.5q-31 0 -37 -35q-2 -8 -3 -21.5t-1 -42.5v-804z " />
<glyph unicode="&#xd5;" horiz-adv-x="669" d="M61 197v49v872v51q0 66 19.5 106t62.5 64q14 8 30.5 14.5t38 9.5t51.5 4t71 1q51 0 86 -2t59.5 -8t43 -16.5t34.5 -24.5q41 -41 49 -109q2 -16 2 -30v-60v-872q0 -35 -1 -57.5t-2 -38t-4 -25.5t-7 -21q-14 -35 -44 -60.5t-69 -35.5q-23 -6 -55.5 -9t-91.5 -3q-41 0 -71 1 t-51.5 5t-37.5 9t-31 16q-43 25 -62.5 64.5t-19.5 105.5zM114 1563q0 63 36 97t99 34q39 0 88 -12l33 -11q6 -2 17 -2q25 0 28 33h137q4 -16 5 -27v-20q0 -53 -31 -88t-80 -35q-18 0 -38.5 2t-53.5 10l-39 8q-16 4 -23 5q-37 0 -36 -37h-138q-2 14 -3 24.5t-1 18.5zM293 281 q0 -35 1 -47.5t3 -20.5q10 -33 37 -33q41 0 41 72v29v804v29q0 39 -9.5 54.5t-31.5 15.5q-31 0 -37 -35q-2 -8 -3 -21.5t-1 -42.5v-804z" />
<glyph unicode="&#xd6;" horiz-adv-x="669" d="M61 197v49v872v51q0 66 19.5 106t62.5 64q14 8 30.5 14.5t38 9.5t51.5 4t71 1q51 0 86 -2t59.5 -8t43 -16.5t34.5 -24.5q41 -41 49 -109q2 -16 2 -30v-60v-872q0 -35 -1 -57.5t-2 -38t-4 -25.5t-7 -21q-14 -35 -44 -60.5t-69 -35.5q-23 -6 -55.5 -9t-91.5 -3q-41 0 -71 1 t-51.5 5t-37.5 9t-31 16q-43 25 -62.5 64.5t-19.5 105.5zM121 1528v164h176v-164h-176zM293 281q0 -35 1 -47.5t3 -20.5q10 -33 37 -33q41 0 41 72v29v804v29q0 39 -9.5 54.5t-31.5 15.5q-31 0 -37 -35q-2 -8 -3 -21.5t-1 -42.5v-804zM373 1528v164h178v-164h-178z" />
<glyph unicode="&#xd8;" horiz-adv-x="669" d="M12 -39l56 168q-4 18 -5.5 33.5t-1.5 34.5v49v872v51q0 66 19.5 106t62.5 64q14 8 30.5 14.5t38 9.5t52.5 4t76 1q47 0 73.5 -1t53.5 -5l31 94l164 -53l-58 -176q2 -10 3 -18.5t1 -20.5v-27v-43v-872q0 -35 -1 -57.5t-2 -38t-4 -25.5t-7 -21q-14 -35 -44 -60.5t-69 -35.5 q-23 -6 -56.5 -9t-92.5 -3q-47 0 -75 2t-50 6l-31 -94zM293 281q0 -35 1 -47.5t3 -20.5q10 -33 37 -33q41 0 41 72v29v804v29q0 39 -9.5 54.5t-31.5 15.5q-31 0 -37 -35q-2 -8 -3 -21.5t-1 -42.5v-804z" />
<glyph unicode="&#xd9;" horiz-adv-x="675" d="M66 223v1143h231v-1104q0 -47 9 -64.5t32 -17.5t32 18.5t9 61.5v1106h231v-1137v-26q0 -66 -15 -104t-56 -66q-16 -12 -34 -19.5t-40.5 -11.5t-56 -5t-84.5 -1q-45 0 -78 3t-57.5 9t-42 17.5t-33.5 27.5q-29 27 -38 63t-9 107zM153 1716h197l55 -211h-158z" />
<glyph unicode="&#xda;" horiz-adv-x="675" d="M66 223v1143h231v-1104q0 -47 9 -64.5t32 -17.5t32 18.5t9 61.5v1106h231v-1137v-26q0 -66 -15 -104t-56 -66q-16 -12 -34 -19.5t-40.5 -11.5t-56 -5t-84.5 -1q-45 0 -78 3t-57.5 9t-42 17.5t-33.5 27.5q-29 27 -38 63t-9 107zM254 1505l53 211h199l-96 -211h-156z" />
<glyph unicode="&#xdb;" horiz-adv-x="675" d="M66 223v1143h231v-1104q0 -47 9 -64.5t32 -17.5t32 18.5t9 61.5v1106h231v-1137v-26q0 -66 -15 -104t-56 -66q-16 -12 -34 -19.5t-40.5 -11.5t-56 -5t-84.5 -1q-45 0 -78 3t-57.5 9t-42 17.5t-33.5 27.5q-29 27 -38 63t-9 107zM123 1505l94 211h246l96 -211h-170l-45 125 l-51 -125h-170z" />
<glyph unicode="&#xdc;" horiz-adv-x="675" d="M66 223v1143h231v-1104q0 -47 9 -64.5t32 -17.5t32 18.5t9 61.5v1106h231v-1137v-26q0 -66 -15 -104t-56 -66q-16 -12 -34 -19.5t-40.5 -11.5t-56 -5t-84.5 -1q-45 0 -78 3t-57.5 9t-42 17.5t-33.5 27.5q-29 27 -38 63t-9 107zM125 1528v164h176v-164h-176zM377 1528v164 h178v-164h-178z" />
<glyph unicode="&#xdf;" horiz-adv-x="593" d="M61 0v1139q0 41 1 67.5t5.5 45t11.5 31.5t19 28q14 18 30.5 29.5t38 17.5t52.5 8t74 2q49 0 84 -3t58.5 -10t40 -19.5t30.5 -30.5q10 -14 16 -27.5t10.5 -31t5.5 -41t1 -58.5v-236v-22q2 -59 -16.5 -92t-69.5 -64q27 -14 44 -27.5t26 -32t12.5 -45t3.5 -63.5v-24v-344 q0 -53 -3.5 -74t-15.5 -43q-49 -82 -149 -80h-27h-51v184q25 0 33 10.5t8 43.5v16v326v24q0 37 -35 37h-6v184q25 2 33 13.5t8 42.5v24v209v21q0 27 -7.5 36t-23.5 9q-23 0 -30 -9.5t-7 -35.5v-21v-1114h-205z" />
<glyph unicode="&#xe0;" horiz-adv-x="577" d="M47 201v192q0 43 2 68.5t12.5 44t29 35t52.5 39.5l172 118v195v14q0 47 -30 47q-31 0 -33 -39v-22v-162h-205v189q0 57 9.5 86.5t31.5 56.5q14 16 29.5 26.5t38 16.5t54.5 8t79 2q45 0 76.5 -3t53 -9t37 -18.5t29.5 -30.5q20 -27 27.5 -54.5t7.5 -80.5v-920h-205v47 q-45 -51 -112 -51q-41 0 -77 19.5t-56 52.5q-12 23 -17.5 49t-5.5 84zM117 1464h197l55 -211h-158zM252 215q0 -35 7 -46t26 -11q16 0 23 11t7 42v303l-34 -25q-20 -14 -24.5 -20t-4.5 -25v-14v-14v-201z" />
<glyph unicode="&#xe1;" horiz-adv-x="577" d="M47 201v192q0 43 2 68.5t12.5 44t29 35t52.5 39.5l172 118v195v14q0 47 -30 47q-31 0 -33 -39v-22v-162h-205v189q0 57 9.5 86.5t31.5 56.5q14 16 29.5 26.5t38 16.5t54.5 8t79 2q45 0 76.5 -3t53 -9t37 -18.5t29.5 -30.5q20 -27 27.5 -54.5t7.5 -80.5v-920h-205v47 q-45 -51 -112 -51q-41 0 -77 19.5t-56 52.5q-12 23 -17.5 49t-5.5 84zM209 1253l53 211h199l-96 -211h-156zM252 215q0 -35 7 -46t26 -11q16 0 23 11t7 42v303l-34 -25q-20 -14 -24.5 -20t-4.5 -25v-14v-14v-201z" />
<glyph unicode="&#xe2;" horiz-adv-x="577" d="M47 201v192q0 43 2 68.5t12.5 44t29 35t52.5 39.5l172 118v195v14q0 47 -30 47q-31 0 -33 -39v-22v-162h-205v189q0 57 9.5 86.5t31.5 56.5q14 16 29.5 26.5t38 16.5t54.5 8t79 2q45 0 76.5 -3t53 -9t37 -18.5t29.5 -30.5q20 -27 27.5 -54.5t7.5 -80.5v-920h-205v47 q-45 -51 -112 -51q-41 0 -77 19.5t-56 52.5q-12 23 -17.5 49t-5.5 84zM71 1253l94 211h246l96 -211h-170l-45 125l-51 -125h-170zM252 215q0 -35 7 -46t26 -11q16 0 23 11t7 42v303l-34 -25q-20 -14 -24.5 -20t-4.5 -25v-14v-14v-201z" />
<glyph unicode="&#xe3;" horiz-adv-x="577" d="M47 201v192q0 43 2 68.5t12.5 44t29 35t52.5 39.5l172 118v195v14q0 47 -30 47q-31 0 -33 -39v-22v-162h-205v189q0 57 9.5 86.5t31.5 56.5q14 16 29.5 26.5t38 16.5t54.5 8t79 2q45 0 76.5 -3t53 -9t37 -18.5t29.5 -30.5q20 -27 27.5 -54.5t7.5 -80.5v-920h-205v47 q-45 -51 -112 -51q-41 0 -77 19.5t-56 52.5q-12 23 -17.5 49t-5.5 84zM69 1311q0 63 36 97t99 34q39 0 88 -12l33 -11q6 -2 17 -2q25 0 28 33h137q4 -16 5 -27v-20q0 -53 -31 -88t-80 -35q-18 0 -38.5 2t-53.5 10l-39 8q-16 4 -23 5q-37 0 -36 -37h-138q-2 14 -3 24.5 t-1 18.5zM252 215q0 -35 7 -46t26 -11q16 0 23 11t7 42v303l-34 -25q-20 -14 -24.5 -20t-4.5 -25v-14v-14v-201z" />
<glyph unicode="&#xe4;" horiz-adv-x="577" d="M47 201v192q0 43 2 68.5t12.5 44t29 35t52.5 39.5l172 118v195v14q0 47 -30 47q-31 0 -33 -39v-22v-162h-205v189q0 57 9.5 86.5t31.5 56.5q14 16 29.5 26.5t38 16.5t54.5 8t79 2q45 0 76.5 -3t53 -9t37 -18.5t29.5 -30.5q20 -27 27.5 -54.5t7.5 -80.5v-920h-205v47 q-45 -51 -112 -51q-41 0 -77 19.5t-56 52.5q-12 23 -17.5 49t-5.5 84zM76 1276v164h176v-164h-176zM252 215q0 -35 7 -46t26 -11q16 0 23 11t7 42v303l-34 -25q-20 -14 -24.5 -20t-4.5 -25v-14v-14v-201zM328 1276v164h178v-164h-178z" />
<glyph unicode="&#xe5;" horiz-adv-x="577" d="M47 201v192q0 43 2 68.5t12.5 44t29 35t52.5 39.5l172 118v195v14q0 47 -30 47q-31 0 -33 -39v-22v-162h-205v189q0 57 9.5 86.5t31.5 56.5q14 16 29.5 26.5t38 16.5t54.5 8t79 2q45 0 76.5 -3t53 -9t37 -18.5t29.5 -30.5q20 -27 27.5 -54.5t7.5 -80.5v-920h-205v47 q-45 -51 -112 -51q-41 0 -77 19.5t-56 52.5q-12 23 -17.5 49t-5.5 84zM127 1358q0 70 47 117t117 47q68 0 116 -47.5t48 -116.5q0 -68 -48 -116t-116 -48q-70 0 -117 48t-47 116zM209 1358q0 -35 23.5 -58.5t58.5 -23.5t58.5 23.5t23.5 58.5t-23.5 58.5t-58.5 23.5 t-58.5 -23.5t-23.5 -58.5zM252 215q0 -35 7 -46t26 -11q16 0 23 11t7 42v303l-34 -25q-20 -14 -24.5 -20t-4.5 -25v-14v-14v-201z" />
<glyph unicode="&#xe6;" horiz-adv-x="841" d="M47 182v201v25q0 66 13.5 95t54.5 58l14 10l186 127v199v8q0 29 -7 39t-25 10q-16 0 -23.5 -11t-7.5 -42v-170h-205v189q0 51 6 77.5t23 51.5q27 39 65.5 53t114.5 14q78 0 111.5 -15.5t56.5 -60.5q25 47 53.5 61.5t95.5 14.5q53 0 85 -5t55 -17q35 -20 55 -58.5 t20 -87.5v-26v-410h-268v-287v-22q2 -45 33 -45t31 45v8v199h204v-220q0 -47 -5 -73.5t-19 -48.5q-25 -39 -65 -55.5t-107 -16.5q-41 0 -68.5 3t-46 11t-31 23.5t-22.5 38.5q-14 -25 -27.5 -40.5t-32 -23.5t-47 -10t-73.5 -2q-72 0 -106 12t-58 47q-18 23 -25.5 50.5 t-7.5 76.5zM252 215q0 -35 7 -46t26 -11q16 0 23 11t7 42v303l-34 -25q-20 -14 -24.5 -20t-4.5 -25v-14v-14v-201zM520 676h64v211v10q0 35 -6.5 46t-26.5 11q-18 0 -24.5 -11t-6.5 -46v-10v-211z" />
<glyph unicode="&#xe7;" horiz-adv-x="577" d="M55 201v18v686q0 55 4 82t17 51q27 45 68.5 61.5t134.5 16.5q55 0 92 -3t61.5 -11t40.5 -23.5t29 -38.5q16 -27 20 -50t4 -79v-276h-204v256v12v15q0 37 -31 36q-18 0 -25.5 -11t-7.5 -42v-8v-664v-8v-14q0 -29 8 -39t25 -10q20 0 25.5 11t5.5 50v10v228h204v-248 q0 -76 -11 -112t-44 -64q-41 -33 -121 -35l-24 -209h-146l62 209h-15q-47 2 -74.5 11t-50.5 32q-29 29 -38 61.5t-9 98.5z" />
<glyph unicode="&#xe8;" horiz-adv-x="581" d="M55 174v21v733q0 90 39 135q14 16 29.5 26.5t38 16.5t55.5 8t82 2q76 0 111.5 -8t62.5 -31q53 -45 53 -133v-16v-416h-268v-295q0 -35 7 -47t26 -12q18 0 24.5 11t6.5 40v6v195h204v-205q0 -70 -7 -99.5t-32 -56.5q-29 -33 -68.5 -43t-127.5 -10q-72 0 -113 8t-63 27 q-59 47 -60 143zM112 1464h197l55 -211h-158zM258 676h64v211v10q0 35 -5.5 46t-25.5 11q-18 0 -25.5 -11t-7.5 -46v-10v-211z" />
<glyph unicode="&#xe9;" horiz-adv-x="581" d="M55 174v21v733q0 90 39 135q14 16 29.5 26.5t38 16.5t55.5 8t82 2q76 0 111.5 -8t62.5 -31q53 -45 53 -133v-16v-416h-268v-295q0 -35 7 -47t26 -12q18 0 24.5 11t6.5 40v6v195h204v-205q0 -70 -7 -99.5t-32 -56.5q-29 -33 -68.5 -43t-127.5 -10q-72 0 -113 8t-63 27 q-59 47 -60 143zM205 1253l53 211h199l-96 -211h-156zM258 676h64v211v10q0 35 -5.5 46t-25.5 11q-18 0 -25.5 -11t-7.5 -46v-10v-211z" />
<glyph unicode="&#xea;" horiz-adv-x="581" d="M55 174v21v733q0 90 39 135q14 16 29.5 26.5t38 16.5t55.5 8t82 2q76 0 111.5 -8t62.5 -31q53 -45 53 -133v-16v-416h-268v-295q0 -35 7 -47t26 -12q18 0 24.5 11t6.5 40v6v195h204v-205q0 -70 -7 -99.5t-32 -56.5q-29 -33 -68.5 -43t-127.5 -10q-72 0 -113 8t-63 27 q-59 47 -60 143zM76 1253l94 211h246l96 -211h-170l-45 125l-51 -125h-170zM258 676h64v211v10q0 35 -5.5 46t-25.5 11q-18 0 -25.5 -11t-7.5 -46v-10v-211z" />
<glyph unicode="&#xeb;" horiz-adv-x="581" d="M55 174v21v733q0 90 39 135q14 16 29.5 26.5t38 16.5t55.5 8t82 2q76 0 111.5 -8t62.5 -31q53 -45 53 -133v-16v-416h-268v-295q0 -35 7 -47t26 -12q18 0 24.5 11t6.5 40v6v195h204v-205q0 -70 -7 -99.5t-32 -56.5q-29 -33 -68.5 -43t-127.5 -10q-72 0 -113 8t-63 27 q-59 47 -60 143zM78 1276v164h176v-164h-176zM258 676h64v211v10q0 35 -5.5 46t-25.5 11q-18 0 -25.5 -11t-7.5 -46v-10v-211zM330 1276v164h178v-164h-178z" />
<glyph unicode="&#xec;" horiz-adv-x="327" d="M-15 0v1112h205v-1112h-205zM-15 1464h197l55 -211h-158z" />
<glyph unicode="&#xed;" horiz-adv-x="327" d="M61 0v1112h205v-1112h-205zM90 1253l53 211h199l-96 -211h-156z" />
<glyph unicode="&#xee;" horiz-adv-x="327" d="M-54 0v1112h205v-1112h-205zM-53 1253l94 211h246l96 -211h-170l-45 125l-51 -125h-170z" />
<glyph unicode="&#xef;" horiz-adv-x="327" d="M-50 0v1112h205v-1112h-205zM-49 1276v164h176v-164h-176zM203 1276v164h178v-164h-178z" />
<glyph unicode="&#xf1;" horiz-adv-x="591" d="M61 0v1112h205v-63q35 39 61.5 53t61.5 14q76 0 117 -59q16 -25 22.5 -48.5t6.5 -76.5v-21v-911h-205v905v6q0 47 -31 47q-33 0 -33 -47v-6v-905h-205zM78 1311q0 63 36 97t99 34q39 0 88 -12l33 -11q6 -2 17 -2q25 0 28 33h137q4 -16 5 -27v-20q0 -53 -31 -88t-80 -35 q-18 0 -38.5 2t-53.5 10l-39 8q-16 4 -23 5q-37 0 -36 -37h-138q-2 14 -3 24.5t-1 18.5z" />
<glyph unicode="&#xf2;" horiz-adv-x="581" d="M55 201v18v686q0 55 4 82t17 51q27 45 68.5 61.5t134.5 16.5q55 0 92 -3t61.5 -11t40.5 -23.5t29 -38.5q16 -27 20 -50t4 -79v-702q0 -63 -6 -92t-24 -56q-27 -39 -67 -52t-130 -13q-47 0 -79 2t-53.5 7t-35.5 13.5t-29 22.5q-29 29 -38 61.5t-9 98.5zM112 1464h197 l55 -211h-158zM260 207q0 -29 7 -39t24 -10q20 0 26.5 11t6.5 50v672l-2 12v15q0 37 -31 36q-18 0 -24.5 -11t-6.5 -42v-8v-664v-8v-14z" />
<glyph unicode="&#xf3;" horiz-adv-x="581" d="M55 201v18v686q0 55 4 82t17 51q27 45 68.5 61.5t134.5 16.5q55 0 92 -3t61.5 -11t40.5 -23.5t29 -38.5q16 -27 20 -50t4 -79v-702q0 -63 -6 -92t-24 -56q-27 -39 -67 -52t-130 -13q-47 0 -79 2t-53.5 7t-35.5 13.5t-29 22.5q-29 29 -38 61.5t-9 98.5zM211 1253l53 211 h199l-96 -211h-156zM260 207q0 -29 7 -39t24 -10q20 0 26.5 11t6.5 50v672l-2 12v15q0 37 -31 36q-18 0 -24.5 -11t-6.5 -42v-8v-664v-8v-14z" />
<glyph unicode="&#xf4;" horiz-adv-x="581" d="M55 201v18v686q0 55 4 82t17 51q27 45 68.5 61.5t134.5 16.5q55 0 92 -3t61.5 -11t40.5 -23.5t29 -38.5q16 -27 20 -50t4 -79v-702q0 -63 -6 -92t-24 -56q-27 -39 -67 -52t-130 -13q-47 0 -79 2t-53.5 7t-35.5 13.5t-29 22.5q-29 29 -38 61.5t-9 98.5zM76 1253l94 211 h246l96 -211h-170l-45 125l-51 -125h-170zM260 207q0 -29 7 -39t24 -10q20 0 26.5 11t6.5 50v672l-2 12v15q0 37 -31 36q-18 0 -24.5 -11t-6.5 -42v-8v-664v-8v-14z" />
<glyph unicode="&#xf5;" horiz-adv-x="581" d="M55 201v18v686q0 55 4 82t17 51q27 45 68.5 61.5t134.5 16.5q55 0 92 -3t61.5 -11t40.5 -23.5t29 -38.5q16 -27 20 -50t4 -79v-702q0 -63 -6 -92t-24 -56q-27 -39 -67 -52t-130 -13q-47 0 -79 2t-53.5 7t-35.5 13.5t-29 22.5q-29 29 -38 61.5t-9 98.5zM71 1311 q0 63 36 97t99 34q39 0 88 -12l33 -11q6 -2 17 -2q25 0 28 33h137q4 -16 5 -27v-20q0 -53 -31 -88t-80 -35q-18 0 -38.5 2t-53.5 10l-39 8q-16 4 -23 5q-37 0 -36 -37h-138q-2 14 -3 24.5t-1 18.5zM260 207q0 -29 7 -39t24 -10q20 0 26.5 11t6.5 50v672l-2 12v15 q0 37 -31 36q-18 0 -24.5 -11t-6.5 -42v-8v-664v-8v-14z" />
<glyph unicode="&#xf6;" horiz-adv-x="581" d="M55 201v18v686q0 55 4 82t17 51q27 45 68.5 61.5t134.5 16.5q55 0 92 -3t61.5 -11t40.5 -23.5t29 -38.5q16 -27 20 -50t4 -79v-702q0 -63 -6 -92t-24 -56q-27 -39 -67 -52t-130 -13q-47 0 -79 2t-53.5 7t-35.5 13.5t-29 22.5q-29 29 -38 61.5t-9 98.5zM78 1276v164h176 v-164h-176zM260 207q0 -29 7 -39t24 -10q20 0 26.5 11t6.5 50v672l-2 12v15q0 37 -31 36q-18 0 -24.5 -11t-6.5 -42v-8v-664v-8v-14zM330 1276v164h178v-164h-178z" />
<glyph unicode="&#xf7;" d="M68 0v1366h684v-1366h-684zM82 14h655v1338h-655v-1338z" />
<glyph unicode="&#xf8;" horiz-adv-x="581" d="M4 -29l55 148q-4 16 -5 28.5t-1 28.5v35v692v33q0 109 70 154q25 16 60.5 21t107.5 5q47 0 76.5 -3t50.5 -7l31 84l129 -47l-56 -152q2 -16 3 -27.5t1 -27.5v-33v-692v-35q0 -106 -69 -151q-25 -16 -61 -22.5t-107 -6.5q-45 0 -76 3t-51 7l-29 -82zM258 215q0 -35 6 -46 t27 -11q18 0 24.5 11t6.5 46v12v660v10q0 35 -6.5 46t-26.5 11q-18 0 -24.5 -11t-6.5 -46v-10v-660v-12z" />
<glyph unicode="&#xf9;" horiz-adv-x="591" d="M57 180v21v911h205v-905v-6q0 -47 31 -47q33 0 33 47v6v905h204v-1112h-204v63q-35 -39 -61.5 -53t-61.5 -14q-74 0 -117 59q-16 25 -22.5 48.5t-6.5 76.5zM110 1464h197l55 -211h-158z" />
<glyph unicode="&#xfa;" horiz-adv-x="591" d="M57 180v21v911h205v-905v-6q0 -47 31 -47q33 0 33 47v6v905h204v-1112h-204v63q-35 -39 -61.5 -53t-61.5 -14q-74 0 -117 59q-16 25 -22.5 48.5t-6.5 76.5zM205 1253l53 211h199l-96 -211h-156z" />
<glyph unicode="&#xfb;" horiz-adv-x="591" d="M57 180v21v911h205v-905v-6q0 -47 31 -47q33 0 33 47v6v905h204v-1112h-204v63q-35 -39 -61.5 -53t-61.5 -14q-74 0 -117 59q-16 25 -22.5 48.5t-6.5 76.5zM80 1253l94 211h246l96 -211h-170l-45 125l-51 -125h-170z" />
<glyph unicode="&#xfc;" horiz-adv-x="591" d="M57 180v21v911h205v-905v-6q0 -47 31 -47q33 0 33 47v6v905h204v-1112h-204v63q-35 -39 -61.5 -53t-61.5 -14q-74 0 -117 59q-16 25 -22.5 48.5t-6.5 76.5zM82 1276v164h176v-164h-176zM334 1276v164h178v-164h-178z" />
<glyph unicode="&#xff;" horiz-adv-x="528" d="M-6 -102h90h10q41 0 58.5 13t17.5 46q0 10 -1 29.5t-5 42.5l-2 16l-152 1067h219l43 -688l45 688h218l-160 -1141l-4 -28q-8 -66 -17.5 -95.5t-29.5 -52.5q-25 -29 -60 -42t-88 -13h-14h-168v158zM51 1276v164h176v-164h-176zM303 1276v164h178v-164h-178z" />
<glyph unicode="&#x152;" horiz-adv-x="798" d="M61 211v29v880v29q0 70 12.5 106.5t45.5 65.5q27 25 72 35t122 10h35h395v-184h-135v-342h135v-185h-135v-471h135v-184h-419h-25q-80 0 -119 10t-67 39q-29 29 -40.5 62.5t-11.5 99.5zM293 250l2 -27q4 -43 39 -43q41 0 41 68v12v836v14q0 41 -9.5 57.5t-31.5 16.5 q-23 0 -32 -17.5t-9 -58.5v-16v-832v-10z" />
<glyph unicode="&#x153;" horiz-adv-x="854" d="M55 176v35v692v33q0 106 68 154q27 16 61.5 21t112.5 5q55 0 84 -5t49 -17q29 14 53.5 18t77.5 4q43 0 72 -2t49 -6t34.5 -11t28.5 -20q53 -45 54 -133v-16v-416h-269v-295q0 -35 7.5 -47t25.5 -12t24.5 11t6.5 40v6v195h205v-205q0 -70 -8.5 -99.5t-32.5 -56.5 q-14 -16 -29.5 -26.5t-38 -16.5t-54.5 -8t-77 -2q-82 0 -131 14q-37 -14 -143 -14q-68 0 -103 6t-59 23q-68 43 -68 151zM260 215q0 -35 6 -46t25 -11q18 0 25.5 11t7.5 46v12v660v10q0 35 -7.5 46t-25.5 11t-24.5 -11t-6.5 -46v-10v-660v-12zM530 676h64v211v10q0 35 -6 46 t-25 11q-20 0 -26.5 -11t-6.5 -46v-10v-211z" />
<glyph unicode="&#x178;" horiz-adv-x="587" d="M6 1366h234l61 -530l61 530h218l-164 -819v-547h-232v547zM78 1528v164h176v-164h-176zM330 1528v164h178v-164h-178z" />
<glyph unicode="&#x2c6;" horiz-adv-x="710" d="M137 1253l94 211h246l96 -211h-170l-45 125l-51 -125h-170z" />
<glyph unicode="&#x2dc;" horiz-adv-x="714" d="M137 1311q0 63 36 97t99 34q39 0 88 -12l33 -11q6 -2 17 -2q25 0 28 33h137q4 -16 5 -27v-20q0 -53 -31 -88t-80 -35q-18 0 -38.5 2t-53.5 10l-39 8q-16 4 -23 5q-37 0 -36 -37h-138q-2 14 -3 24.5t-1 18.5z" />
<glyph unicode="&#x2000;" horiz-adv-x="893" />
<glyph unicode="&#x2001;" horiz-adv-x="1786" />
<glyph unicode="&#x2002;" horiz-adv-x="893" />
<glyph unicode="&#x2003;" horiz-adv-x="1786" />
<glyph unicode="&#x2004;" horiz-adv-x="595" />
<glyph unicode="&#x2005;" horiz-adv-x="446" />
<glyph unicode="&#x2006;" horiz-adv-x="297" />
<glyph unicode="&#x2007;" horiz-adv-x="297" />
<glyph unicode="&#x2008;" horiz-adv-x="223" />
<glyph unicode="&#x2009;" horiz-adv-x="357" />
<glyph unicode="&#x200a;" horiz-adv-x="99" />
<glyph unicode="&#x2010;" horiz-adv-x="409" d="M82 485v185h246v-185h-246z" />
<glyph unicode="&#x2011;" horiz-adv-x="409" d="M82 485v185h246v-185h-246z" />
<glyph unicode="&#x2012;" horiz-adv-x="409" d="M82 485v185h246v-185h-246z" />
<glyph unicode="&#x2013;" horiz-adv-x="634" d="M82 485v185h471v-185h-471z" />
<glyph unicode="&#x2014;" horiz-adv-x="2211" d="M82 485v185h2048v-185h-2048z" />
<glyph unicode="&#x2018;" horiz-adv-x="333" d="M86 956v220v18q0 86 36 125t124 49v-96q-59 -12 -60 -74v-8t2 -12v-2h58v-220h-160z" />
<glyph unicode="&#x2019;" horiz-adv-x="333" d="M86 954v99q57 10 57 71v21v2h-57v219h160v-217v-21q0 -86 -37 -124.5t-123 -49.5z" />
<glyph unicode="&#x201a;" d="M68 0v1366h684v-1366h-684zM82 14h655v1338h-655v-1338z" />
<glyph unicode="&#x201c;" horiz-adv-x="569" d="M86 956v220v18q0 86 36 125t124 49v-96q-59 -12 -60 -74v-8t2 -12v-2h58v-220h-160zM322 956v220v18q0 86 35.5 125t123.5 49v-96q-59 -12 -59 -74q0 -2 1 -8t1 -12v-2h57v-220h-159z" />
<glyph unicode="&#x201d;" horiz-adv-x="569" d="M86 954v99q57 10 57 71v21v2h-57v219h160v-217v-21q0 -86 -37 -124.5t-123 -49.5zM322 954v99q57 10 57 71v21v2h-57v219h159v-217v-21q0 -86 -36.5 -124.5t-122.5 -49.5z" />
<glyph unicode="&#x201e;" horiz-adv-x="569" d="M86 0v219h160v-217v-20q0 -86 -36 -125t-124 -50v99q59 10 59 71v21v2h-59zM324 0v219h159v-217v-20q0 -86 -36.5 -125t-122.5 -50v99q57 10 57 71v21v2h-57z" />
<glyph unicode="&#x2022;" horiz-adv-x="518" d="M82 682q0 74 52 126t126 52t125 -52t51 -126t-51 -125t-125 -51t-126 51t-52 125z" />
<glyph unicode="&#x2026;" horiz-adv-x="2048" d="M256 0v231h170v-231h-170zM940 0v231h170v-231h-170zM1622 0v231h170v-231h-170z" />
<glyph unicode="&#x202f;" horiz-adv-x="357" />
<glyph unicode="&#x2039;" horiz-adv-x="409" d="M96 573l74 471h158l-76 -471l76 -471h-158z" />
<glyph unicode="&#x203a;" horiz-adv-x="409" d="M82 102l76 471l-76 471h158l73 -471l-73 -471h-158z" />
<glyph unicode="&#x205f;" horiz-adv-x="446" />
<glyph unicode="&#x20ac;" horiz-adv-x="716" d="M0 528l31 150h78v82h-109l31 151h78v209v51q0 63 20.5 103.5t60.5 64.5q14 8 31 14.5t39.5 9.5t53 4t75.5 1q47 0 80 -2t56.5 -8t41 -15.5t33.5 -23.5q43 -39 53 -113q2 -16 2 -32v-56v-137h-233v104v27q0 72 -41 72t-41 -68v-29v-176h229l-30 -151h-199v-82h182 l-30 -150h-152v-249q0 -33 1 -45.5t3 -20.5q10 -33 37 -33q41 0 41 72v29v174h233v-209q0 -35 -1 -57.5t-2 -38t-4 -25.5t-7 -21q-14 -35 -44 -60.5t-69 -35.5q-23 -6 -55.5 -9t-91.5 -3q-41 0 -70.5 1t-51 5t-38 9t-31.5 16q-43 25 -62 64.5t-19 105.5v49v282h-109z" />
<glyph unicode="&#x2122;" d="M68 0v1366h684v-1366h-684zM82 14h655v1338h-655v-1338z" />
<glyph unicode="&#x25fc;" horiz-adv-x="1116" d="M0 0v1116h1116v-1116h-1116z" />
<glyph unicode="&#xfb01;" horiz-adv-x="661" d="M14 948v164h54v39v29q0 98 39.5 142t132.5 44h20h74v-158h-12q-29 0 -39.5 -10t-10.5 -43v-10v-33h328v-1112h-205v948h-123v-948h-204v948h-54zM395 1208v158h205v-158h-205z" />
<glyph unicode="&#xfb02;" horiz-adv-x="661" d="M14 948v164h54v39v29q0 98 39.5 142t132.5 44h20h74v-158h-12q-29 0 -39.5 -10t-10.5 -43v-10v-33h123v254h205v-1366h-205v948h-123v-948h-204v948h-54z" />
</font>
</defs>
</svg>
